ExtraTorrent.ag - The Largest Bittorent System Login   |    Register
ExtraTorrent.ag > Categories > TV torrents > HD torrents


Browse TV torrents

The.Noite.com.Danilo.Gentili.2020.07.31.720p.WEB.x264-Skylane77.mp4 torrent


Download torrent: Download The.Noite.com.Danilo.Gentili.2020.07.31.720p.WEB.x264-Skylane77.mp4 torrent Magnet link Bookmark Torrent: The.Noite.com.Danilo.Gentili.2020.07.31.720p.WEB.x264-Skylane77.mp4 The.Noite.com.Danilo.Gentili.2020.07.31.720p.WEB.x264-Skylane77.mp4 torrent | if not working, try instead: Magnet Link
Info hash: F39E94E754EB43DECE3ED8B11806A3D7804636E9
Category: Categories > TV torrents > HD torrents
Trackers:
10    View all torrent trackers >
Health:
 seeds: 1 ,  leechers: 0 |  Update >
Total Size: 325.70 MB
Torrent status: Added by trusted uploader Added by trusted uploader Trusted Uploader Site Friend Superman Sun
Uploader: Trusted Uploader Site Friend Superman Sun
Torrent added: 2020-08-02 03:51:19

Download The.Noite.com.Danilo.Gentili.2020.07.31.720p.WEB.x264-Skylane77.mp4 torrent if not working, try downloading torrent using Download The.Noite.com.Danilo.Gentili.2020.07.31.720p.WEB.x264-Skylane77.mp4 via Magnet Link




Torrent Description

Tixinha, Zezinho e Hayashii

Entrevista com os gamers Guilherme "Tixinha" Cheida, Henrique "Zezinho" Lempke e Hayashii (interpretado por Murilo Couto); Danilo Gentili Mostra o Seu Negócio; musical com Ultraje a Rigor.



--
Video
ID: 1
Format: AVC
Format/Info: Advanced Video Codec
Format profile: [email protected]
Format settings: CABAC / 9 Ref Frames
Format settings, CABAC: Yes
Format settings, Reference frames: 9 frames
Codec ID: avc1
Codec ID/Info: Advanced Video Coding
Duration: 40 min 27 s
Bit rate: 989 kb/s
Width: 1 280 pixels
Height: 720 pixels
Display aspect ratio: 16:9
Frame rate mode: Variable
Frame rate: 29.970 FPS
Minimum frame rate: 15.000 FPS
Maximum frame rate: 30.000 FPS
Color space: YUV
Chroma subsampling: 4:2:0
Bit depth: 8 bits
Scan type: Progressive
Bits/(Pixel*Frame): 0.036
Stream size: 286 MiB (88%)
Writing library: x264 core 159 r2999 296494a
Encoding settings: cabac=1 / ref=9 / deblock=1:0:0 / analyse=0x3:0x133 / me=umh / subme=10 / psy=1 / psy_rd=1.00:0.00 / mixed_ref=1 / me_range=24 / chroma_me=1 / trellis=2 / 8x8dct=1 / cqm=0 / deadzone=21,11 / fast_pskip=1 / chroma_qp_offset=-2 / threads=12 / lookahead_threads=2 / sliced_threads=0 / nr=0 / decimate=1 / interlaced=0 / bluray_compat=0 / constrained_intra=0 / bframes=8 / b_pyramid=2 / b_adapt=2 / b_bias=0 / direct=3 / weightb=1 / open_gop=0 / weightp=2 / keyint=250 / keyint_min=25 / scenecut=40 / intra_refresh=0 / rc_lookahead=60 / rc=crf / mbtree=1 / crf=25.0 / qcomp=0.60 / qpmin=0 / qpmax=69 / qpstep=4 / ip_ratio=1.40 / aq=1:1.00
Codec configuration box: avcC

Audio
ID: 2
Format: AAC LC
Format/Info: Advanced Audio Codec Low Complexity
Codec ID: mp4a-40-2
Duration: 40 min 27 s
Bit rate mode: Constant
Bit rate: 128 kb/s
Channel(s): 2 channels
Channel layout: L R
Sampling rate: 48.0 kHz
Frame rate: 46.875 FPS (1024 SPF)
Compression mode: Lossy
Stream size: 37.2 MiB (11%)
Default: Yes
Alternate group: 1



#skylane77 -> To avoid fakes, ALWAYS check that the torrent was added on ExtraTorrent.ag by skylane77

https://extratorrent.unblockit.win/



Download The.Noite.com.Danilo.Gentili.2020.07.31.720p.WEB.x264-Skylane77.mp4 torrent


Comments (please add your comment)
No comments



Home - Browse Torrents - Upload Torrent - Stat - Forum - FAQ - Login
ExtraTorrent.ag is in compliance with copyrights
2006-2020 ExtraTorrent.ag